Resultados 1 a 10 de 10

Tópico: [MOVIDO] Video-Hub

          
  1. #1
    Iniciante
    Registro
    05/12/12
    Posts
    5
    Agradeceu
    1
    0 obrigados em 0 posts

    [MOVIDO] Video-Hub

    Boa tarde galera, comprei um filme pelo video hub da samsung e gostaria que converter ele para avi ou mkv pois o mesmo está em pyv e só roda dentro do android, existe alguma forma de fazer isso?

  2. #2
    Moderador Avatar de Assis Brandão
    Registro
    16/04/12
    Posts
    5.057
    Agradeceu
    589
    1.259 obrigados em 925 posts
    Citação Postado originalmente por dnevony Ver Post
    Boa tarde galera, comprei um filme pelo video hub da samsung e gostaria que converter ele para avi ou mkv pois o mesmo está em pyv e só roda dentro do android, existe alguma forma de fazer isso?
    Bem Vindo ao melhor site sobre Android do Brasil e um dos melhores do mundo.
    Existe centenas de formas, uma dela é usando o Format Factory e que é totalmente free.
    Só acho que esta pergunta não deveria ser aqui, vamos aguardar algum moderador mover, OK?

  3. Os seguinte usuário agradeceu Assis Brandão pelo post acima:


  4. #3
    Administrador Avatar de Calibre 12
    Registro
    11/12/11
    Posts
    4.330
    Agradeceu
    1.242
    1.603 obrigados em 1.018 posts
    Amigo dnevony,

    Dei uma olhadinha em seu perfil e constatei que seu aparelho é um Galaxy SII.
    Por esse motivo, movi a sua questão para lá, ok?

    Tópico movido para Galaxy S II i9100 - Q&A.
    - Iniciante no mundo Android? Leia nossa FAQ.
    - Não sabe onde postar? Leia as Regras de Postagem.
    - Será que seu problema já foi discutido? Pesquise antes de postar.




  5. #4
    Iniciante
    Registro
    05/12/12
    Posts
    5
    Agradeceu
    1
    0 obrigados em 0 posts
    Obrigado Assis Brandão, mas está dando erro na hora de converter

  6. #5
    Iniciante
    Registro
    05/12/12
    Posts
    5
    Agradeceu
    1
    0 obrigados em 0 posts
    Citação Postado originalmente por Calibre 12 Ver Post
    Amigo dnevony,

    Dei uma olhadinha em seu perfil e constatei que seu aparelho é um Galaxy SII.
    Por esse motivo, movi a sua questão para lá, ok?

    Tópico movido para Galaxy S II i9100 - Q&A.
    Obrigado Calibre 12

  7. #6
    Moderador Avatar de Assis Brandão
    Registro
    16/04/12
    Posts
    5.057
    Agradeceu
    589
    1.259 obrigados em 925 posts
    Citação Postado originalmente por dnevony Ver Post
    Obrigado Assis Brandão, mas está dando erro na hora de converter
    Pode especificar?

  8. #7
    Iniciante
    Registro
    05/12/12
    Posts
    5
    Agradeceu
    1
    0 obrigados em 0 posts
    Erro 0x1:Função incorreta

  9. #8
    Moderador Avatar de Assis Brandão
    Registro
    16/04/12
    Posts
    5.057
    Agradeceu
    589
    1.259 obrigados em 925 posts
    Citação Postado originalmente por dnevony Ver Post
    Erro 0x1:Função incorreta
    Diga exatamente com está fazendo.

    Enviado de Tangamandapio via GT-S5830B

  10. #9
    Iniciante
    Registro
    05/12/12
    Posts
    5
    Agradeceu
    1
    0 obrigados em 0 posts
    quando pesso para o Format Factory me dar as informações do arquivo pyv ele me dá isso aki

    General
    Complete name : C:\Users\Administrador\Desktop\Prometheus.pyv
    Format : Windows Media
    File size : 1.12 GiB
    Duration : 1h 58mn
    Overall bit rate mode : Variable
    Overall bit rate : 1 346 Kbps
    Maximum Overall bit rate : 1 336 Kbps
    Encoded date : UTC 2012-10-18 04:07:20.132
    Copyright : GalaxiaTranscoder v2.5
    MediaFoundationVersion : 1.112

    Video
    ID : 2
    Format : PRDY
    Codec ID : PRDY
    Duration : 1h 58mn
    Bit rate mode : Variable
    Bit rate : 1 200 Kbps
    Width : 800 pixels
    Height : 448 pixels
    Display aspect ratio : 16:9
    Frame rate : 25.000 fps
    Bits/(Pixel*Frame) : 0.134
    Stream size : 1 019 MiB (89%)
    Language : English (US)

    Audio
    ID : 1
    Format : 5052
    Codec ID : 5052
    Duration : 1h 58mn
    Bit rate mode : Variable
    Bit rate : 126 Kbps
    Channel(s) : 2 channels
    Sampling rate : 44.1 KHz
    Bit depth : 16 bits
    Stream size : 107 MiB (9%)
    Language : English (US)

    será que eu tenho q renomear ele para alguma outra extensão?

  11. #10
    Moderador Avatar de Assis Brandão
    Registro
    16/04/12
    Posts
    5.057
    Agradeceu
    589
    1.259 obrigados em 925 posts
    Citação Postado originalmente por dnevony Ver Post
    quando pesso para o Format Factory me dar as informações do arquivo pyv ele me dá isso aki

    General
    Complete name : C:\Users\Administrador\Desktop\Prometheus.pyv
    Format : Windows Media
    File size : 1.12 GiB
    Duration : 1h 58mn
    Overall bit rate mode : Variable
    Overall bit rate : 1 346 Kbps
    Maximum Overall bit rate : 1 336 Kbps
    Encoded date : UTC 2012-10-18 04:07:20.132
    Copyright : GalaxiaTranscoder v2.5
    MediaFoundationVersion : 1.112

    Video
    ID : 2
    Format : PRDY
    Codec ID : PRDY
    Duration : 1h 58mn
    Bit rate mode : Variable
    Bit rate : 1 200 Kbps
    Width : 800 pixels
    Height : 448 pixels
    Display aspect ratio : 16:9
    Frame rate : 25.000 fps
    Bits/(Pixel*Frame) : 0.134
    Stream size : 1 019 MiB (89%)
    Language : English (US)

    Audio
    ID : 1
    Format : 5052
    Codec ID : 5052
    Duration : 1h 58mn
    Bit rate mode : Variable
    Bit rate : 126 Kbps
    Channel(s) : 2 channels
    Sampling rate : 44.1 KHz
    Bit depth : 16 bits
    Stream size : 107 MiB (9%)
    Language : English (US)

    será que eu tenho q renomear ele para alguma outra extensão?
    instale um programa chamado k-lite codec pack full. pode ser falta de codec. Ou pq o arquivo contem licença de uso.

Tópicos Similares

  1. [MOVIDO] Assistir video do PC no Gs2
    Por Araken no fórum Galaxy S II i9100 - Dúvidas (Perguntas, Problemas, Pedidos de ajuda, etc.)
    Respostas: 12
    Último Post: 04/03/13, 14:58
  2. Video do youtube em background
    Por LiveTnediser no fórum Galaxy Tab 10.1 - Dúvidas (Perguntas, Problemas, Pedidos de ajuda, etc.)
    Respostas: 2
    Último Post: 18/01/13, 07:58
  3. cabo de video
    Por Jucemar Da Silva Morais no fórum Galaxy Tab 10.1 - Acessórios
    Respostas: 13
    Último Post: 13/03/12, 15:26
  4. [APP] AndroMedia Video Editor
    Por lincolnleitao no fórum Aplicativos
    Respostas: 4
    Último Post: 17/11/11, 21:59

Permissões de Postagem

  • Você não pode iniciar novos tópicos
  • Você não pode enviar respostas
  • Você não pode enviar anexos
  • Você não pode editar suas mensagens
  •